Авторские статьи

Хищник. Фильмы.


Данная статья собирает в одном месте все известные фильмы про Хищника для удобства скачивания и дальнейшего просмотра. Все упомянутые в статье фильмы рассказывают историю одного лишь Хищника. На просторах Интернета вы легко найдёте данные фильмы в различных форматах и любого качества. Не люблю чёрные полосы по горизонтали и фанат Open Matte (скрытое кашети́рование), поэтому в статье вы найдёте именно данные релизы, которые проверены лично и будут сидироваться.

Хищник. Predator.

Хищник (англ. Predator) - древняя инопланетная раса охотников, являются одним из самых развитых инопланетных видов.

Самоназвание Хищников - Хиш-Ку-Тен, каста охотников зовёт себя яутжа. Это гуманоидные создания высотой в два с половиной метра и массой 150-200 килограммов. Зрение восприимчиво к тепловому излучению. Цвет глаз - зелёный или жёлтый. На голове яутжа - щетинистые волосы, уложенные в прическу из многочисленных коротких косичек. Цвет кожи — жёлтый, с тёмными пятнами отмершей кожи. Кровь - зелёная, светящаяся в темноте. Срок жизни Хищника около 300 земных лет.


Хищник

Оригинал: Predator
Дата: 1987
Слоган: In this movie, Arnold will experience every meaning of the word Pain. В этом фильме Арнольд прочувствует все значения слова Боль.
Режиссёр: Джон МакТирнан
Автор сценария: Джим Томас, Джон Томас
В главных ролях: Арнольд Шварценеггер, Карл Уэзерс, Эльпидия Каррильо, Джесси Вентура
Оператор: Дональд Макальпин
Композитор: Алан Сильвестри
IMDb: ID 0093773
Оказал влияние:

Книги Хищник Пол Монетт (Paul Monette), Джон Томас (John C. Thomas) и Хищник I Данил Корецкий (литературный псевдоним Дэн Кордэйл).

Комикс Хищник: Бетонные джунгли знакомит нас с братом Алана "Датча" - детективом Джоном Шефером, который не только занят своими проблемами, но и пытается выяснить что случилось с братом.

Комикс Хищник: Тёмная Река снова сводит нас с детективом Джоном Шефером и судьбой Алана "Датча" Шефера. Хотя Джона обманом завлекли в джунгли Южной Америки, так что словам лжецов верить нельзя, поэтому вопрос что случилось потом после спасения Алана в фильме Хищник - остаётся открытым!

Аннотация:
Отряд наёмников под командованием бывшего майора американской армии Алана "Датча" Шефера (Арнольд Шварценеггер) нанимают для спасательной операции в джунглях Гватемалы. Выбраться из зелёного ада будет не просто, так как это место охоты Хищника, который будет убивать один за одним членов команды. В итоге мораль фильма: нужно забыть о цивилизации и о современном оружии, вспомнить навыки древних охотников, чтобы сразиться с инопланетным Хищником и победить его.

Официальный трейлер

PREDATOR Official 30th Anniversary Trailer (1987) Arnold Schwarzenegger Sci-Fi Movie HD

Вырезанные сцены

В отснятом материале фильма Хищник были сцены:

  • с бабочкой, севшей на Хищника и оставившая на мгновение отпечаток на его камуфляже.
  • с хамелеоном, которого Анна подняла с земли, что ещё раз напоминает об её ранее сказанных словах о том, что "он меняет цвета, как хамелеон". Но женщину никто не слушает.
  • с муравьями на спине Датча, которые хоть и могу кусать больно, но не так как больно сделает Хищник. Вырезанная сцена наглядно показывает что Хищник играл с Датчем и чувствовал своё превосходство и близкую победу.
  • более длительная сцена подготовки Датча к финальной битве с созданием лука, ослепляющих бомб и ловушек.

PREDATOR Deleted Scenes (1987) Sci Fi Horror

Постеры и кадры из фильма

Картинки кликабельны для удобного просмотра в высоком качестве.

Звуковой ряд фильма

  • MP3 Predator 1987

    В 1997 году в честь десятилетия выхода фильма Хищник был выпущен альбом Alan Silvestri Predator 10th Anniversary Edition.

  • FLAC Predator 1987

Релизы фильма

  • FullHD 1080p

    В виду того что фильм 1987 года, и, хоть технические возможности кинематографической плёнки высоки, ожидать больши́х разрешений (dimension) не стоит. На просторах Интернета можно найти "качество" Blu-Ray (2160p), но зерно картинки оставляет желать лучшего. Данная версия очень неплоха и содержит различные звуковые дорожки, поэтому рекомендую к просмотру её.


    Техническая информация о файле Predator_1987_1080p.mkv

    Общее
    Уникальный идентификатор     : 203719162368797562093231625857448015836 (0x9942E22D64D3ABFB9B297A82418FF7DC)
    Полное имя                   : Predator_1987_1080p.mkv
    Формат                       : Matroska
    Версия формата               : Version 2
    Размер файла                 : 15,3 Гбайт
    Продолжительность            : 1 ч. 46 м.
    Общий поток                  : 20,5 Мбит/сек
    Название фильма              : mister.hats
    Дата кодирования             : UTC 2020-03-23 17:36:51
    Программа кодирования        : mkvmerge v5.8.0 ('No Sleep / Pillow') built on Sep  2 2012 15:37:04
    Библиотека кодирования       : libebml v1.2.3 + libmatroska v1.3.0
    
    Видео
    Идентификатор                : 1
    Формат                       : AVC
    Формат/Информация            : Advanced Video Codec
    Профиль формата              : High@L4.1
    Настройки формата            : CABAC / 4 Ref Frames
    Параметр CABAC формата       : Да
    Параметр RefFrames формата   : 4 кадра
    Идентификатор кодека         : V_MPEG4/ISO/AVC
    Продолжительность            : 1 ч. 46 м.
    Битрейт                      : 13,7 Мбит/сек
    Ширина                       : 1 920 пикселей
    Высота                       : 1 080 пикселей
    Соотношение сторон           : 16:9
    Режим частоты кадров         : Постоянный
    Частота кадров               : 23,976 (24000/1001) кадра/сек
    Цветовое пространство        : YUV
    Субдискретизация насыщенности: 4:2:0
    Битовая глубина              : 8 бит
    Тип развёртки                : Прогрессивная
    Бит/(Пиксели*Кадры)          : 0.276
    Размер потока                : 9,88 Гбайт (65%)
    Библиотека кодирования       : x264 core 152 r2851kMod ba24899
    Язык                         : English
    Default                      : Да
    Forced                       : Нет
    Цветовой диапазон            : Limited
    Основные цвета               : BT.709
    Характеристики трансфера     : BT.709
    Коэффициенты матрицы         : BT.709
    
    Аудио #1
    Идентификатор        : 2
    Формат               : AC-3
    Формат/Информация    : Audio Coding 3
    Коммерческое название: Dolby Digital
    Идентификатор кодека : A_AC3
    Продолжительность    : 1 ч. 46 м.
    Вид битрейта         : Постоянный
    Битрейт              : 640 Кбит/сек
    Каналы               : 6 каналов
    Channel layout       : L R C LFE Ls Rs
    Частота              : 48,0 КГц
    Частота кадров       : 31,250 кадров/сек (1536 SPF)
    Метод сжатия         : С потерями
    Размер потока        : 488 Мбайт (3%)
    Заголовок            : Дубляж, Custom
    Язык                 : Russian
    Service kind         : Complete Main
    Default              : Да
    Forced               : Нет
    
    Аудио #2
    Идентификатор        : 3
    Формат               : AC-3
    Формат/Информация    : Audio Coding 3
    Коммерческое название: Dolby Digital
    Идентификатор кодека : A_AC3
    Продолжительность    : 1 ч. 46 м.
    Вид битрейта         : Постоянный
    Битрейт              : 448 Кбит/сек
    Каналы               : 6 каналов
    Channel layout       : L R C LFE Ls Rs
    Частота              : 48,0 КГц
    Частота кадров       : 31,250 кадров/сек (1536 SPF)
    Метод сжатия         : С потерями
    Размер потока        : 342 Мбайт (2%)
    Заголовок            : Дубляж, Blu-ray CEE
    Язык                 : Russian
    Service kind         : Complete Main
    Default              : Нет
    Forced               : Нет
    
    Аудио #3
    Идентификатор        : 4
    Формат               : AC-3
    Формат/Информация    : Audio Coding 3
    Коммерческое название: Dolby Digital
    Идентификатор кодека : A_AC3
    Продолжительность    : 1 ч. 46 м.
    Вид битрейта         : Постоянный
    Битрейт              : 640 Кбит/сек
    Каналы               : 6 каналов
    Channel layout       : L R C LFE Ls Rs
    Частота              : 48,0 КГц
    Частота кадров       : 31,250 кадров/сек (1536 SPF)
    Метод сжатия         : С потерями
    Размер потока        : 488 Мбайт (3%)
    Заголовок            : Многоголосый закадровый Киномания
    Язык                 : Russian
    Service kind         : Complete Main
    Default              : Нет
    Forced               : Нет
    
    Аудио #4
    Идентификатор        : 5
    Формат               : AC-3
    Формат/Информация    : Audio Coding 3
    Коммерческое название: Dolby Digital
    Идентификатор кодека : A_AC3
    Продолжительность    : 1 ч. 46 м.
    Вид битрейта         : Постоянный
    Битрейт              : 384 Кбит/сек
    Каналы               : 6 каналов
    Channel layout       : L R C LFE Ls Rs
    Частота              : 48,0 КГц
    Частота кадров       : 31,250 кадров/сек (1536 SPF)
    Метод сжатия         : С потерями
    Размер потока        : 293 Мбайт (2%)
    Заголовок            : Многоголосый закадровый Гемини (R5)
    Язык                 : Russian
    Service kind         : Complete Main
    Default              : Нет
    Forced               : Нет
    
    Аудио #5
    Идентификатор        : 6
    Формат               : AC-3
    Формат/Информация    : Audio Coding 3
    Коммерческое название: Dolby Digital
    Идентификатор кодека : A_AC3
    Продолжительность    : 1 ч. 46 м.
    Вид битрейта         : Постоянный
    Битрейт              : 256 Кбит/сек
    Каналы               : 2 канала
    Channel layout       : L R
    Частота              : 48,0 КГц
    Частота кадров       : 31,250 кадров/сек (1536 SPF)
    Метод сжатия         : С потерями
    Размер потока        : 195 Мбайт (1%)
    Заголовок            : Многоголосый закадровый НТВ
    Язык                 : Russian
    Service kind         : Complete Main
    Default              : Нет
    Forced               : Нет
    
    Аудио #6
    Идентификатор        : 7
    Формат               : AC-3
    Формат/Информация    : Audio Coding 3
    Коммерческое название: Dolby Digital
    Идентификатор кодека : A_AC3
    Продолжительность    : 1 ч. 46 м.
    Вид битрейта         : Постоянный
    Битрейт              : 192 Кбит/сек
    Каналы               : 2 канала
    Channel layout       : L R
    Частота              : 48,0 КГц
    Частота кадров       : 31,250 кадров/сек (1536 SPF)
    Метод сжатия         : С потерями
    Размер потока        : 146 Мбайт (1%)
    Заголовок            : Многоголосый закадровый ОРТ
    Язык                 : Russian
    Service kind         : Complete Main
    Default              : Нет
    Forced               : Нет
    
    Аудио #7
    Идентификатор        : 8
    Формат               : AC-3
    Формат/Информация    : Audio Coding 3
    Коммерческое название: Dolby Digital
    Идентификатор кодека : A_AC3
    Продолжительность    : 1 ч. 46 м.
    Вид битрейта         : Постоянный
    Битрейт              : 640 Кбит/сек
    Каналы               : 6 каналов
    Channel layout       : L R C LFE Ls Rs
    Частота              : 48,0 КГц
    Частота кадров       : 31,250 кадров/сек (1536 SPF)
    Метод сжатия         : С потерями
    Размер потока        : 488 Мбайт (3%)
    Заголовок            : Двухголосый закадровый П.Гланц и И.Королева
    Язык                 : Russian
    Service kind         : Complete Main
    Default              : Нет
    Forced               : Нет
    
    Аудио #8
    Идентификатор        : 9
    Формат               : AC-3
    Формат/Информация    : Audio Coding 3
    Коммерческое название: Dolby Digital
    Идентификатор кодека : A_AC3
    Продолжительность    : 1 ч. 46 м.
    Вид битрейта         : Постоянный
    Битрейт              : 640 Кбит/сек
    Каналы               : 6 каналов
    Channel layout       : L R C LFE Ls Rs
    Частота              : 48,0 КГц
    Частота кадров       : 31,250 кадров/сек (1536 SPF)
    Метод сжатия         : С потерями
    Размер потока        : 488 Мбайт (3%)
    Заголовок            : Одноголосый закадровый А. Гаврилов
    Язык                 : Russian
    Service kind         : Complete Main
    Default              : Нет
    Forced               : Нет
    
    Аудио #9
    Идентификатор        : 10
    Формат               : AC-3
    Формат/Информация    : Audio Coding 3
    Коммерческое название: Dolby Digital
    Идентификатор кодека : A_AC3
    Продолжительность    : 1 ч. 46 м.
    Вид битрейта         : Постоянный
    Битрейт              : 256 Кбит/сек
    Каналы               : 2 канала
    Channel layout       : L R
    Частота              : 48,0 КГц
    Частота кадров       : 31,250 кадров/сек (1536 SPF)
    Метод сжатия         : С потерями
    Размер потока        : 195 Мбайт (1%)
    Заголовок            : Одноголосый закадровый, Ю.Живов
    Язык                 : Russian
    Service kind         : Complete Main
    Default              : Нет
    Forced               : Нет
    
    Аудио #10
    Идентификатор        : 11
    Формат               : AC-3
    Формат/Информация    : Audio Coding 3
    Коммерческое название: Dolby Digital
    Идентификатор кодека : A_AC3
    Продолжительность    : 1 ч. 46 м.
    Вид битрейта         : Постоянный
    Битрейт              : 640 Кбит/сек
    Каналы               : 6 каналов
    Channel layout       : L R C LFE Ls Rs
    Частота              : 48,0 КГц
    Частота кадров       : 31,250 кадров/сек (1536 SPF)
    Метод сжатия         : С потерями
    Размер потока        : 488 Мбайт (3%)
    Заголовок            : Одноголосый закадровый, Д.Пучков
    Язык                 : Russian
    Service kind         : Complete Main
    Default              : Нет
    Forced               : Нет
    
    Аудио #11
    Идентификатор        : 12
    Формат               : AC-3
    Формат/Информация    : Audio Coding 3
    Коммерческое название: Dolby Digital
    Идентификатор кодека : A_AC3
    Продолжительность    : 1 ч. 46 м.
    Вид битрейта         : Постоянный
    Битрейт              : 256 Кбит/сек
    Каналы               : 2 канала
    Channel layout       : L R
    Частота              : 48,0 КГц
    Частота кадров       : 31,250 кадров/сек (1536 SPF)
    Метод сжатия         : С потерями
    Размер потока        : 195 Мбайт (1%)
    Заголовок            : Одноголосый закадровый А. Гаврилов (VHS)
    Язык                 : Russian
    Service kind         : Complete Main
    Default              : Нет
    Forced               : Нет
    
    Аудио #12
    Идентификатор        : 13
    Формат               : AC-3
    Формат/Информация    : Audio Coding 3
    Коммерческое название: Dolby Digital
    Идентификатор кодека : A_AC3
    Продолжительность    : 1 ч. 46 м.
    Вид битрейта         : Постоянный
    Битрейт              : 256 Кбит/сек
    Каналы               : 2 канала
    Channel layout       : L R
    Частота              : 48,0 КГц
    Частота кадров       : 31,250 кадров/сек (1536 SPF)
    Метод сжатия         : С потерями
    Размер потока        : 195 Мбайт (1%)
    Заголовок            : Одноголосый закадровый В. Горчаков
    Язык                 : Russian
    Service kind         : Complete Main
    Default              : Нет
    Forced               : Нет
    
    Аудио #13
    Идентификатор        : 14
    Формат               : AC-3
    Формат/Информация    : Audio Coding 3
    Коммерческое название: Dolby Digital
    Идентификатор кодека : A_AC3
    Продолжительность    : 1 ч. 46 м.
    Вид битрейта         : Постоянный
    Битрейт              : 256 Кбит/сек
    Каналы               : 2 канала
    Channel layout       : L R
    Частота              : 48,0 КГц
    Частота кадров       : 31,250 кадров/сек (1536 SPF)
    Метод сжатия         : С потерями
    Размер потока        : 195 Мбайт (1%)
    Заголовок            : Одноголосый закадровый В. Дохалов
    Язык                 : Russian
    Service kind         : Complete Main
    Default              : Нет
    Forced               : Нет
    
    Аудио #14
    Идентификатор        : 15
    Формат               : AC-3
    Формат/Информация    : Audio Coding 3
    Коммерческое название: Dolby Digital
    Идентификатор кодека : A_AC3
    Продолжительность    : 1 ч. 46 м.
    Вид битрейта         : Постоянный
    Битрейт              : 256 Кбит/сек
    Каналы               : 2 канала
    Channel layout       : L R
    Частота              : 48,0 КГц
    Частота кадров       : 31,250 кадров/сек (1536 SPF)
    Метод сжатия         : С потерями
    Размер потока        : 195 Мбайт (1%)
    Заголовок            : Одноголосый закадровый М. Латышев
    Язык                 : Russian
    Service kind         : Complete Main
    Default              : Нет
    Forced               : Нет
    
    Аудио #15
    Идентификатор        : 16
    Формат               : AC-3
    Формат/Информация    : Audio Coding 3
    Коммерческое название: Dolby Digital
    Идентификатор кодека : A_AC3
    Продолжительность    : 1 ч. 46 м.
    Вид битрейта         : Постоянный
    Битрейт              : 256 Кбит/сек
    Каналы               : 2 канала
    Channel layout       : L R
    Частота              : 48,0 КГц
    Частота кадров       : 31,250 кадров/сек (1536 SPF)
    Метод сжатия         : С потерями
    Размер потока        : 195 Мбайт (1%)
    Заголовок            : Одноголосый закадровый Г. Либергал
    Язык                 : Russian
    Service kind         : Complete Main
    Default              : Нет
    Forced               : Нет
    
    Аудио #16
    Идентификатор        : 17
    Формат               : AC-3
    Формат/Информация    : Audio Coding 3
    Коммерческое название: Dolby Digital
    Идентификатор кодека : A_AC3
    Продолжительность    : 1 ч. 46 м.
    Вид битрейта         : Постоянный
    Битрейт              : 192 Кбит/сек
    Каналы               : 2 канала
    Channel layout       : L R
    Частота              : 48,0 КГц
    Частота кадров       : 31,250 кадров/сек (1536 SPF)
    Метод сжатия         : С потерями
    Размер потока        : 146 Мбайт (1%)
    Заголовок            : Одноголосый закадровый Б. Федоров
    Язык                 : Russian
    Service kind         : Complete Main
    Default              : Нет
    Forced               : Нет
    
    Аудио #17
    Идентификатор        : 18
    Формат               : AC-3
    Формат/Информация    : Audio Coding 3
    Коммерческое название: Dolby Digital
    Идентификатор кодека : A_AC3
    Продолжительность    : 1 ч. 46 м.
    Вид битрейта         : Постоянный
    Битрейт              : 640 Кбит/сек
    Каналы               : 6 каналов
    Channel layout       : L R C LFE Ls Rs
    Частота              : 48,0 КГц
    Частота кадров       : 31,250 кадров/сек (1536 SPF)
    Метод сжатия         : С потерями
    Размер потока        : 488 Мбайт (3%)
    Заголовок            : Оригинал
    Язык                 : English
    Service kind         : Complete Main
    Default              : Нет
    Forced               : Нет
    
    Текст #1
    Идентификатор        : 19
    Формат               : UTF-8
    Идентификатор кодека : S_TEXT/UTF8
    Идентификатор кодека : UTF-8 Plain Text
    Заголовок            : BD CEE Full
    Язык                 : Russian
    Default              : Нет
    Forced               : Нет
    
    Текст #2
    Идентификатор        : 20
    Формат               : UTF-8
    Идентификатор кодека : S_TEXT/UTF8
    Идентификатор кодека : UTF-8 Plain Text
    Заголовок            : Гоблин-Пучков
    Язык                 : Russian
    Default              : Нет
    Forced               : Нет
    
    Текст #3
    Идентификатор        : 21
    Формат               : UTF-8
    Идентификатор кодека : S_TEXT/UTF8
    Идентификатор кодека : UTF-8 Plain Text
    Язык                 : English
    Default              : Нет
    Forced               : Нет
    
    Меню
    00:00:00.000         : :1. The Invaders (Main Titles)
    00:04:03.285         : :2. The Professionals
    00:06:28.638         : :3. Schaefer's Team
    00:10:31.464         : :4. Death in the Jungle
    00:18:20.182         : :5. The Watcher
    00:20:20.553         : :6. The Rebel Camp
    00:27:51.336         : :7. Set Up
    00:31:03.278         : :8. The Stalker
    00:34:52.716         : :9. The Only Way Out
    00:37:48.600         : :10. Something in the Trees
    00:40:59.832         : :11. The Living Jungle
    00:46:32.373         : :12. Another Kill
    00:53:07.643         : :13. There's Something Out There
    01:01:36.359         : :14. The Stand
    01:04:07.719         : :15. The Demon
    01:08:08.876         : :16. Two for the Kill
    01:14:09.320         : :17. Billy's Last Stand
    01:15:49.170         : :18. Dutch and the Demon
    01:18:26.327         : :19. The Alien's Weakness
    01:20:54.725         : :20. The Trap and the Trophies
    01:25:08.228         : :21. The Challenge
    01:34:30.790         : :22. One Ugly
    01:35:48.076         : :23. Duel
    01:39:57.617         : :24. The Last Laugh
    01:42:55.169         : :25. End Titles
       



Хищник 2

Оригинал: Predator 2
Дата: 1990
Слоган: He's in town with a few days to kill. Пока он в городе у него есть несколько свободных дней.
Режиссёр: Стивен Хопкинс
Автор сценария: Джим Томас, Джон Томас
В главных ролях: Кевин Питер Холл, Гэри Бьюзи, Дэнни Гловер, Рубен Блейдс, Мария Кончита Алонсо, Билл Пэкстон, Роберт Дави, Адам Болдуин, Кент МакКорд
Оператор: Питер Леви
Композитор: Алан Сильвестри
IMDb: ID 0100403
Оказал влияние:

Книги Хищник 2 Саймон Хоукe (Simon Hawke) и Хищник 2: Город Ангелов Иван Сербин (литературный псевдоним Артур Кварри).

Комикс Хищник 2: Адаптация фильма.

Комикс Хищник: 1718 рассказывает историю того самого кремневого пистолета Рафаэля Адолини, который был подарен старейшиной Хищников Майклу Харригану в конце фильма.

Череп Чужого среди других черепов-трофеев создал почву для создания кинофильмов серии Чужой против Хищника.

Аннотация:
Знойное лето 1997 года. В Лос-Анджелесе идёт война между ямайскими и колумбийскими бандами. Сотрудник полиции Майкл Харриган ещё и не подозревает что разборки с бандами приведут его к федеральным агентам, у которых идёт охота на инопланетного Хищника. И опять, как и в первой части, вооружённые высокотехнологичным оборудованием спецагенты терпят поражение. Победить Хищника, вооружённого ещё более развитым боевым оружием, можно или примитивным оружием или его собственным.

Официальный трейлер

Predator 2 - Official Trailer HD

Вырезанные сцены

Первоначальный сценарий был совершенно другим, чем мы знаем по фильму, но всё было лишь на бумаге. Из вырезанных сцен фильма стоит отметить лишь более длительный хронометраж передачи Hard Core, в которых Майкла даже назвали cowboy cop.

Predator 2 (1990) Deleted Scenes

Постеры и кадры из фильма

Картинки кликабельны для удобного просмотра в высоком качестве.

Звуковой ряд фильма

  • MP3 Predator 2 1990

    В 2014 году американская звукозаписывающая компания Varèse Sarabande выпустила ограниченным тиражом издание Alan Silvestri Predator 2 (The Deluxe Edition).

  • FLAC Predator 2 1990

Релизы фильма

  • FullHD 1080p

    В виду того что фильм 1990 года, и, хоть технические возможности кинематографической плёнки высоки, ожидать больши́х разрешений (dimension) не стоит. На просторах Интернета можно найти "качество" Blu-Ray (2160p), но зерно картинки оставляет желать лучшего. Данная версия очень неплоха и содержит различные звуковые дорожки, поэтому рекомендую к просмотру её.


    Техническая информация о файле Predator_2_1990_1080p.mkv

    Общее
    Уникальный идентификатор     : 224521805970015849058099435510340318315 (0xA8E953B196FDBC69A6A575A5DC2CF46B)
    Полное имя                   : Predator_2_1990_1080p.mkv
    Формат                       : Matroska
    Версия формата               : Version 2
    Размер файла                 : 16,3 Гбайт
    Продолжительность            : 1 ч. 48 м.
    Общий поток                  : 21,6 Мбит/сек
    Название фильма              : mister.hats
    Дата кодирования             : UTC 2020-03-23 19:56:04
    Программа кодирования        : mkvmerge v5.8.0 ('No Sleep / Pillow') built on Sep  2 2012 15:37:04
    Библиотека кодирования       : libebml v1.2.3 + libmatroska v1.3.0
    
    Видео
    Идентификатор                : 1
    Формат                       : AVC
    Формат/Информация            : Advanced Video Codec
    Профиль формата              : High@L4.1
    Настройки формата            : CABAC / 4 Ref Frames
    Параметр CABAC формата       : Да
    Параметр RefFrames формата   : 4 кадра
    Идентификатор кодека         : V_MPEG4/ISO/AVC
    Продолжительность            : 1 ч. 48 м.
    Битрейт                      : 16,0 Мбит/сек
    Ширина                       : 1 920 пикселей
    Высота                       : 1 040 пикселей
    Соотношение сторон           : 1,85:1
    Режим частоты кадров         : Постоянный
    Частота кадров               : 23,976 (24000/1001) кадра/сек
    Цветовое пространство        : YUV
    Субдискретизация насыщенности: 4:2:0
    Битовая глубина              : 8 бит
    Тип развёртки                : Прогрессивная
    Бит/(Пиксели*Кадры)          : 0.334
    Размер потока                : 11,7 Гбайт (72%)
    Библиотека кодирования       : x264 core 152 r2851kMod ba24899
    Язык                         : English
    Default                      : Да
    Forced                       : Нет
    Цветовой диапазон            : Limited
    Основные цвета               : BT.709
    Характеристики трансфера     : BT.709
    Коэффициенты матрицы         : BT.709
    
    Аудио #1
    Идентификатор                : 2
    Формат                       : AC-3
    Формат/Информация            : Audio Coding 3
    Коммерческое название        : Dolby Digital
    Идентификатор кодека         : A_AC3
    Продолжительность            : 1 ч. 48 м.
    Вид битрейта                 : Постоянный
    Битрейт                      : 640 Кбит/сек
    Каналы                       : 6 каналов
    Channel layout               : L R C LFE Ls Rs
    Частота                      : 48,0 КГц
    Частота кадров               : 31,250 кадров/сек (1536 SPF)
    Метод сжатия                 : С потерями
    Размер потока                : 494 Мбайт (3%)
    Заголовок                    : Дубляж, Custom
    Язык                         : Russian
    Service kind                 : Complete Main
    Default                      : Да
    Forced                       : Нет
    
    Аудио #2
    Идентификатор                : 3
    Формат                       : AC-3
    Формат/Информация            : Audio Coding 3
    Коммерческое название        : Dolby Digital
    Идентификатор кодека         : A_AC3
    Продолжительность            : 1 ч. 48 м.
    Вид битрейта                 : Постоянный
    Битрейт                      : 448 Кбит/сек
    Каналы                       : 6 каналов
    Channel layout               : L R C LFE Ls Rs
    Частота                      : 48,0 КГц
    Частота кадров               : 31,250 кадров/сек (1536 SPF)
    Метод сжатия                 : С потерями
    Размер потока                : 346 Мбайт (2%)
    Заголовок                    : Дубляж, Blu-ray CEE
    Язык                         : Russian
    Service kind                 : Complete Main
    Default                      : Нет
    Forced                       : Нет
    
    Аудио #3
    Идентификатор                : 4
    Формат                       : AC-3
    Формат/Информация            : Audio Coding 3
    Коммерческое название        : Dolby Digital
    Идентификатор кодека         : A_AC3
    Продолжительность            : 1 ч. 48 м.
    Вид битрейта                 : Постоянный
    Битрейт                      : 192 Кбит/сек
    Каналы                       : 1 канал
    Channel layout               : C
    Частота                      : 48,0 КГц
    Частота кадров               : 31,250 кадров/сек (1536 SPF)
    Метод сжатия                 : С потерями
    Размер потока                : 148 Мбайт (1%)
    Заголовок                    : Дубляж, Киностудия им. Горького
    Язык                         : Russian
    Service kind                 : Complete Main
    Default                      : Нет
    Forced                       : Нет
    
    Аудио #4
    Идентификатор                : 5
    Формат                       : AC-3
    Формат/Информация            : Audio Coding 3
    Коммерческое название        : Dolby Digital
    Идентификатор кодека         : A_AC3
    Продолжительность            : 1 ч. 48 м.
    Вид битрейта                 : Постоянный
    Битрейт                      : 448 Кбит/сек
    Каналы                       : 6 каналов
    Channel layout               : L R C LFE Ls Rs
    Частота                      : 48,0 КГц
    Частота кадров               : 31,250 кадров/сек (1536 SPF)
    Метод сжатия                 : С потерями
    Размер потока                : 346 Мбайт (2%)
    Заголовок                    : Многоголосый закадровый, R5
    Язык                         : Russian
    Service kind                 : Complete Main
    Default                      : Нет
    Forced                       : Нет
    
    Аудио #5
    Идентификатор                : 6
    Формат                       : AC-3
    Формат/Информация            : Audio Coding 3
    Коммерческое название        : Dolby Digital
    Идентификатор кодека         : A_AC3
    Продолжительность            : 1 ч. 48 м.
    Вид битрейта                 : Постоянный
    Битрейт                      : 384 Кбит/сек
    Каналы                       : 6 каналов
    Channel layout               : L R C LFE Ls Rs
    Частота                      : 48,0 КГц
    Частота кадров               : 31,250 кадров/сек (1536 SPF)
    Метод сжатия                 : С потерями
    Размер потока                : 297 Мбайт (2%)
    Заголовок                    : Многоголосый закадровый, Киномания
    Язык                         : Russian
    Service kind                 : Complete Main
    Default                      : Нет
    Forced                       : Нет
    
    Аудио #6
    Идентификатор                : 7
    Формат                       : AC-3
    Формат/Информация            : Audio Coding 3
    Коммерческое название        : Dolby Digital
    Идентификатор кодека         : A_AC3
    Продолжительность            : 1 ч. 48 м.
    Вид битрейта                 : Постоянный
    Битрейт                      : 192 Кбит/сек
    Каналы                       : 2 канала
    Channel layout               : L R
    Частота                      : 48,0 КГц
    Частота кадров               : 31,250 кадров/сек (1536 SPF)
    Метод сжатия                 : С потерями
    Размер потока                : 148 Мбайт (1%)
    Заголовок                    : Многоголосый закадровый, OPT
    Язык                         : Russian
    Service kind                 : Complete Main
    Default                      : Нет
    Forced                       : Нет
    
    Аудио #7
    Идентификатор                : 8
    Формат                       : AC-3
    Формат/Информация            : Audio Coding 3
    Коммерческое название        : Dolby Digital
    Идентификатор кодека         : A_AC3
    Продолжительность            : 1 ч. 48 м.
    Вид битрейта                 : Постоянный
    Битрейт                      : 192 Кбит/сек
    Каналы                       : 2 канала
    Channel layout               : L R
    Частота                      : 48,0 КГц
    Частота кадров               : 31,250 кадров/сек (1536 SPF)
    Метод сжатия                 : С потерями
    Размер потока                : 148 Мбайт (1%)
    Заголовок                    : Двухголосый закадровый, Премьер-Видео
    Язык                         : Russian
    Service kind                 : Complete Main
    Default                      : Нет
    Forced                       : Нет
    
    Аудио #8
    Идентификатор                : 9
    Формат                       : AC-3
    Формат/Информация            : Audio Coding 3
    Коммерческое название        : Dolby Digital
    Идентификатор кодека         : A_AC3
    Продолжительность            : 1 ч. 48 м.
    Вид битрейта                 : Постоянный
    Битрейт                      : 192 Кбит/сек
    Каналы                       : 2 канала
    Channel layout               : L R
    Частота                      : 48,0 КГц
    Частота кадров               : 31,250 кадров/сек (1536 SPF)
    Метод сжатия                 : С потерями
    Размер потока                : 148 Мбайт (1%)
    Заголовок                    : Двухголосый закадровый, НТВ
    Язык                         : Russian
    Service kind                 : Complete Main
    Default                      : Нет
    Forced                       : Нет
    
    Аудио #9
    Идентификатор                : 10
    Формат                       : AC-3
    Формат/Информация            : Audio Coding 3
    Коммерческое название        : Dolby Digital
    Идентификатор кодека         : A_AC3
    Продолжительность            : 1 ч. 48 м.
    Вид битрейта                 : Постоянный
    Битрейт                      : 640 Кбит/сек
    Каналы                       : 6 каналов
    Channel layout               : L R C LFE Ls Rs
    Частота                      : 48,0 КГц
    Частота кадров               : 31,250 кадров/сек (1536 SPF)
    Метод сжатия                 : С потерями
    Размер потока                : 494 Мбайт (3%)
    Заголовок                    : Двухголосый закадровый, П.Гланц и И.Королева
    Язык                         : Russian
    Service kind                 : Complete Main
    Default                      : Нет
    Forced                       : Нет
    
    Аудио #10
    Идентификатор                : 11
    Формат                       : AC-3
    Формат/Информация            : Audio Coding 3
    Коммерческое название        : Dolby Digital
    Идентификатор кодека         : A_AC3
    Продолжительность            : 1 ч. 48 м.
    Вид битрейта                 : Постоянный
    Битрейт                      : 448 Кбит/сек
    Каналы                       : 6 каналов
    Channel layout               : L R C LFE Ls Rs
    Частота                      : 48,0 КГц
    Частота кадров               : 31,250 кадров/сек (1536 SPF)
    Метод сжатия                 : С потерями
    Размер потока                : 346 Мбайт (2%)
    Заголовок                    : Одноголосый закадровый, А.Гаврилов
    Язык                         : Russian
    Service kind                 : Complete Main
    Default                      : Нет
    Forced                       : Нет
    
    Аудио #11
    Идентификатор                : 12
    Формат                       : AC-3
    Формат/Информация            : Audio Coding 3
    Коммерческое название        : Dolby Digital
    Идентификатор кодека         : A_AC3
    Продолжительность            : 1 ч. 48 м.
    Вид битрейта                 : Постоянный
    Битрейт                      : 384 Кбит/сек
    Каналы                       : 6 каналов
    Channel layout               : L R C LFE Ls Rs
    Частота                      : 48,0 КГц
    Частота кадров               : 31,250 кадров/сек (1536 SPF)
    Метод сжатия                 : С потерями
    Размер потока                : 297 Мбайт (2%)
    Заголовок                    : Одноголосый закадровый, в.Горчаков
    Язык                         : Russian
    Service kind                 : Complete Main
    Default                      : Нет
    Forced                       : Нет
    
    Аудио #12
    Идентификатор                : 13
    Формат                       : AC-3
    Формат/Информация            : Audio Coding 3
    Коммерческое название        : Dolby Digital
    Идентификатор кодека         : A_AC3
    Продолжительность            : 1 ч. 48 м.
    Вид битрейта                 : Постоянный
    Битрейт                      : 448 Кбит/сек
    Каналы                       : 6 каналов
    Channel layout               : L R C LFE Ls Rs
    Частота                      : 48,0 КГц
    Частота кадров               : 31,250 кадров/сек (1536 SPF)
    Метод сжатия                 : С потерями
    Размер потока                : 346 Мбайт (2%)
    Заголовок                    : Одноголосый закадровый, К. Поздняков
    Язык                         : Russian
    Service kind                 : Complete Main
    Default                      : Нет
    Forced                       : Нет
    
    Аудио #13
    Идентификатор                : 14
    Формат                       : AC-3
    Формат/Информация            : Audio Coding 3
    Коммерческое название        : Dolby Digital
    Идентификатор кодека         : A_AC3
    Продолжительность            : 1 ч. 48 м.
    Вид битрейта                 : Постоянный
    Битрейт                      : 192 Кбит/сек
    Каналы                       : 2 канала
    Channel layout               : L R
    Частота                      : 48,0 КГц
    Частота кадров               : 31,250 кадров/сек (1536 SPF)
    Метод сжатия                 : С потерями
    Размер потока                : 148 Мбайт (1%)
    Заголовок                    : Одноголосый закадровый, П. Прямостанов
    Язык                         : Russian
    Service kind                 : Complete Main
    Default                      : Нет
    Forced                       : Нет
    
    Аудио #14
    Идентификатор                : 15
    Формат                       : AC-3
    Формат/Информация            : Audio Coding 3
    Коммерческое название        : Dolby Digital
    Идентификатор кодека         : A_AC3
    Продолжительность            : 1 ч. 48 м.
    Вид битрейта                 : Постоянный
    Битрейт                      : 192 Кбит/сек
    Каналы                       : 2 канала
    Channel layout               : L R
    Частота                      : 48,0 КГц
    Частота кадров               : 31,250 кадров/сек (1536 SPF)
    Метод сжатия                 : С потерями
    Размер потока                : 148 Мбайт (1%)
    Заголовок                    : Одноголосый закадровый, Готлиб
    Язык                         : Russian
    Service kind                 : Complete Main
    Default                      : Нет
    Forced                       : Нет
    
    Аудио #15
    Идентификатор                : 16
    Формат                       : AC-3
    Формат/Информация            : Audio Coding 3
    Коммерческое название        : Dolby Digital
    Идентификатор кодека         : A_AC3
    Продолжительность            : 1 ч. 48 м.
    Вид битрейта                 : Постоянный
    Битрейт                      : 640 Кбит/сек
    Каналы                       : 6 каналов
    Channel layout               : L R C LFE Ls Rs
    Частота                      : 48,0 КГц
    Частота кадров               : 31,250 кадров/сек (1536 SPF)
    Метод сжатия                 : С потерями
    Размер потока                : 494 Мбайт (3%)
    Заголовок                    : Оригинал
    Язык                         : English
    Service kind                 : Complete Main
    Default                      : Нет
    Forced                       : Нет
    
    Текст #1
    Идентификатор                : 17
    Формат                       : UTF-8
    Идентификатор кодека         : S_TEXT/UTF8
    Идентификатор кодека         : UTF-8 Plain Text
    Заголовок                    : forced
    Язык                         : Russian
    Default                      : Да
    Forced                       : Нет
    
    Текст #2
    Идентификатор                : 18
    Формат                       : UTF-8
    Идентификатор кодека         : S_TEXT/UTF8
    Идентификатор кодека         : UTF-8 Plain Text
    Язык                         : Russian
    Default                      : Нет
    Forced                       : Нет
    
    Текст #3
    Идентификатор                : 19
    Формат                       : UTF-8
    Идентификатор кодека         : S_TEXT/UTF8
    Идентификатор кодека         : UTF-8 Plain Text
    Язык                         : English
    Default                      : Нет
    Forced                       : Нет
    
    Меню
    00:00:00.000                 : en:War Zone
    00:03:11.817                 : en:A Force Of One
    00:07:26.321                 : en:Invisible Enemy
    00:11:40.408                 : en:Cut To Pieces
    00:14:05.386                 : en:Insubordination
    00:16:03.337                 : en:The Feds
    00:18:57.970                 : en:The New Guy
    00:22:21.423                 : en:Massacre
    00:25:48.756                 : en:The Devil Came for Them
    00:29:03.867                 : en:Keyes' Warning
    00:30:20.193                 : en:Surveillance
    00:32:41.209                 : en:Danny and the Demon
    00:36:39.864                 : en:Now It's Personal
    00:41:02.001                 : en:A Forensic Mystery
    00:43:00.411                 : en:King Willie
    00:47:17.877                 : en:Death of a King
    00:51:13.821                 : en:The Watcher
    00:53:43.053                 : en:Subway Assassin
    00:58:14.408                 : en:Mercy
    01:01:18.717                 : en:Path of the Predator
    01:04:46.591                 : en:The Alien Hunter
    01:07:36.261                 : en:Killer In the Cold
    01:15:41.871                 : en:Keyes Stands Alone
    01:16:49.522                 : en:Hunter and Hunted
    01:19:23.217                 : en:One Ugly...
    01:22:01.792                 : en:Man Against Alien
    01:26:10.916                 : en:First Aid
    01:31:32.195                 : en:The Trophy Room
    01:33:38.321                 : en:Death Blow
    01:36:19.440                 : en:The Honor Guard
    01:37:54.577                 : en:Last Man Standing
    01:41:48.602                 : en:End Titles
       



Хищники

Оригинал: Predators
Дата: 2010
Слоган: The most dangerous killers on the planet ... but this is not our planet. Самые опасные убийцы на планете, но это не наша планета.
Режиссёр: Нимрод Антал
Автор сценария: Майкл Финч, Алекс Литвак, Роберт Родригес
В главных ролях: Эдриен Броуди, Тофер Грейс, Алисе Брага, Лоренс Фишборн, Луис Одзава Чжанцзянь, Дэнни Трехо, Уолтон Гоггинс, Олег Тактаров, Махершалалхашбаз Али
Оператор: Дьюла Падош
Композитор: Джон Дебни, Алан Сильвестри
IMDb: ID 1424381
Оказал влияние:

Комиксы по мотивам фильма:

Аннотация:
Тяжело очнуться и понимать что ты падаешь с неба в зелёный ад. Ещё тяжелее подняться, собраться и, озираясь вокруг, понять - что чёрт возьми происходит!? Хищников с планеты Земля не зря собрали на этой планете - настоящим космическим Хищникам нужно тренироваться на серьёзных противниках. Чтобы дать хоть какой-либо отпор, землянам придётся объединиться перед лицом угрозы и тогда есть шанс. Правда до сих пор остаётся вопрос - как сбежать с чужой планеты?

Официальный трейлер

Predators - Official Trailer (HD)

Постеры и кадры из фильма

Картинки кликабельны для удобного просмотра в высоком качестве.

Вырезанные сцены

В фильме вырезана часть сцен:

  • Сцена где с неба падает неизвестный солдат между Ройсом (Эдриен Броуди) и Кучильо (Дэнни Трехо) продлена за счёт внезапно активировавшегося парашюта, который напугал мексиканского бандита.
  • После объяснения Изабель (Алисе Брага) что она из Армии обороны Израиля, Кучильо (Дэнни Трехо), насмехаясь над ней, спросил: "Я думал сучкам нельзя быть снайперами!?" На что Изабель ответила: "Вот почему они не взяли тебя?" Кучильо лишь ещё громче заржал и заметил: "Сука"
  • Когда группа нашла Эдвина (Тофер Грейс), висящего на дереве и кричащего чтобы ему помогли, Ройс (Эдриен Броуди) перед тем как выстрелить в ветку, сказал: "Если вы настаиваете."
  • Когда Ройс (Эдриен Броуди) решает что выжившим лучше будет подняться на высоту, Изабель (Алисе Брага), Кучильо (Дэнни Трехо) и Стэнс (Уолтон Гоггинс) спорят о ролях в команде. Стэнс вначале отказывается подчиняться и идти с другими, но когда все ушли без него, он всё-таки последовал за всеми.
  • В разговоре выясняется что Стэнс (Уолтон Гоггинс) серийный убийца, третий в списке самых разыскиваемых ФБР, погубивший 38 человек. Кучильо (Дэнни Трехо) с отвращением высказал ему что, каким бы плохим не был он сам, но, по крайней мере, убивает ради денег, а не просто так - без причины. Эдвин (Тофер Грейс) поинтересовался у Стэнса почему он совершил так много убийств. На что тот ответил: "Ну, мой адвокат сказал что я сошёл с ума. Но хотите знать настоящую причину, док? А почему нет, чёрт возьми?"
  • Перед тем как Изабель (Алисе Брага) проверит свой компас, Кучильо (Дэнни Трехо) с Эдвином (Тофер Грейс) и Николаем (Олег Тактаров) обсуждают: безопасно ли пить воду из каменных бассейнов? Эдвин сообщил, что ему нужно попи́сать. Кучильо съязвил: "Писают женщины, мужчины ссат." Эдвин спросил: "А чем занимается Кучильо?" Он ответил невозмутимо: "Я отливаю"
  • Ройс незаметно следует за Эдвином, когда тот удалялся в туалет. Приставив нож к горлу, Ройс обвиняет Эдвина в причастности его к охоте на них на том факте что он не убийца, как другие. Эдвин сознался что пристрастился к наркотикам и во время операции по удалению аппендицита женщине по имени Элис ему привиделось что она проснулась и напала на него. В результате он жестоко зарезал её до того, как другие врачи смогли его удержать. Так что он не такая и белая ворона в команде.
  • Когда группа добирается до заброшенной буровой установки, Николай (Олег Тактаров) начинает устанавливать противопехотные мины M18A1 Клеймор для прикрытия входа, но Ноланд (Лоренс Фишборн) отговаривает его с тем смыслом что Хищники слишком умны для таких ловушек.
  • Продемонстрировав всем свою татуировку, Стэнс (Уолтон Гоггинс) пытается подкатить к Изабель (Алисе Брага) и объясняет ей что давно не занимался сексом и боится что Хищники убьют его прежде чем он сделает это вновь. Изабель соглашается перепихнуться прямо здесь, на что шокированный Стэнс спросил: "Чё, реально?" На что Изабель нежно улыбнулась и категорично ответила: "Нет!"
  • После того как с воздуха разведка Хищников засекла следы выживших, Ройс сообщил своей группе, выбирающейся из реки, что их всё ещё преследуют.

Картинки кликабельны для удобного просмотра в высоком качестве.

Звуковой ряд фильма

  • MP3 Predators 2010

  • FLAC Predators 2010

Релизы фильма

  • FullHD 1080p


    Техническая информация о файле Predators_2010_1080p.mkv

    Общее
    Уникальный идентификатор      : 205714992203778665501981759436697945976 (0x9AC3442F7A7EF2F6100A8D7AB598C778)
    Полное имя                    : Predators_2010_1080p.mkv
    Формат                        : Matroska
    Версия формата                : Version 4
    Размер файла                  : 16,1 Гбайт
    Продолжительность             : 1 ч. 47 м.
    Общий поток                   : 21,5 Мбит/сек
    Название фильма               : Хищники 2010 WEB-DL 1080p Open Matte
    Дата кодирования              : UTC 2021-05-03 17:54:05
    Программа кодирования         : mkvmerge v56.1.0 ('My Friend') 64-bit
    Библиотека кодирования        : libebml v1.4.2 + libmatroska v1.6.4
    
    Видео
    Идентификатор                 : 1
    Формат                        : AVC
    Формат/Информация             : Advanced Video Codec
    Профиль формата               : High@L4
    Настройки формата             : CABAC / 4 Ref Frames
    Параметр CABAC формата        : Да
    Параметр RefFrames формата    : 4 кадра
    Идентификатор кодека          : V_MPEG4/ISO/AVC
    Продолжительность             : 1 ч. 47 м.
    Битрейт                       : 11,2 Мбит/сек
    Ширина                        : 1 920 пикселей
    Высота                        : 1 080 пикселей
    Соотношение сторон            : 16:9
    Режим частоты кадров          : Постоянный
    Частота кадров                : 23,976 (24000/1001) кадра/сек
    Цветовое пространство         : YUV
    Субдискретизация насыщенности : 4:2:0
    Битовая глубина               : 8 бит
    Тип развёртки                 : Прогрессивная
    Бит/(Пиксели*Кадры)           : 0.225
    Размер потока                 : 8,37 Гбайт (52%)
    Заголовок                     : WEB-DL 1080 Open Matte Sonntag204
    Язык                          : German
    Default                       : Да
    Forced                        : Нет
    Цветовой диапазон             : Limited
    Основные цвета                : BT.709
    Характеристики трансфера      : BT.709
    Коэффициенты матрицы          : BT.709
    
    Аудио #1
    Идентификатор                 : 2
    Формат                        : DTS
    Формат/Информация             : Digital Theater Systems
    Идентификатор кодека          : A_DTS
    Продолжительность             : 1 ч. 46 м.
    Вид битрейта                  : Постоянный
    Битрейт                       : 755 Кбит/сек
    Каналы                        : 6 каналов
    Channel layout                : C L R Ls Rs LFE
    Частота                       : 48,0 КГц
    Частота кадров                : 93,750 кадра/сек (512 SPF)
    Битовая глубина               : 24 бит
    Метод сжатия                  : С потерями
    Размер потока                 : 577 Мбайт (3%)
    Заголовок                     : Дубляж, Blu-ray CEE
    Язык                          : Russian
    Default                       : Да
    Forced                        : Нет
    
    Аудио #2
    Идентификатор                 : 3
    Формат                        : DTS
    Формат/Информация             : Digital Theater Systems
    Идентификатор кодека          : A_DTS
    Продолжительность             : 1 ч. 46 м.
    Вид битрейта                  : Постоянный
    Битрейт                       : 1 510 Кбит/сек
    Каналы                        : 6 каналов
    Channel layout                : C L R Ls Rs LFE
    Частота                       : 48,0 КГц
    Частота кадров                : 93,750 кадра/сек (512 SPF)
    Битовая глубина               : 24 бит
    Метод сжатия                  : С потерями
    Размер потока                 : 1,13 Гбайт (7%)
    Заголовок                     : Ю.Сербин
    Язык                          : Russian
    Default                       : Нет
    Forced                        : Нет
    
    Аудио #3
    Идентификатор                 : 4
    Формат                        : DTS
    Формат/Информация             : Digital Theater Systems
    Идентификатор кодека          : A_DTS
    Продолжительность             : 1 ч. 46 м.
    Вид битрейта                  : Постоянный
    Битрейт                       : 1 510 Кбит/сек
    Каналы                        : 6 каналов
    Channel layout                : C L R Ls Rs LFE
    Частота                       : 48,0 КГц
    Частота кадров                : 93,750 кадра/сек (512 SPF)
    Битовая глубина               : 24 бит
    Метод сжатия                  : С потерями
    Размер потока                 : 1,13 Гбайт (7%)
    Заголовок                     : А.Гаврилов
    Язык                          : Russian
    Default                       : Нет
    Forced                        : Нет
    
    Аудио #4
    Идентификатор                 : 5
    Формат                        : DTS
    Формат/Информация             : Digital Theater Systems
    Идентификатор кодека          : A_DTS
    Продолжительность             : 1 ч. 46 м.
    Вид битрейта                  : Постоянный
    Битрейт                       : 1 510 Кбит/сек
    Каналы                        : 6 каналов
    Channel layout                : C L R Ls Rs LFE
    Частота                       : 48,0 КГц
    Частота кадров                : 93,750 кадра/сек (512 SPF)
    Битовая глубина               : 24 бит
    Метод сжатия                  : С потерями
    Размер потока                 : 1,13 Гбайт (7%)
    Заголовок                     : Ю.Живов
    Язык                          : Russian
    Default                       : Нет
    Forced                        : Нет
    
    Аудио #5
    Идентификатор                 : 6
    Формат                        : DTS
    Формат/Информация             : Digital Theater Systems
    Идентификатор кодека          : A_DTS
    Продолжительность             : 1 ч. 46 м.
    Вид битрейта                  : Постоянный
    Битрейт                       : 1 510 Кбит/сек
    Каналы                        : 6 каналов
    Channel layout                : C L R Ls Rs LFE
    Частота                       : 48,0 КГц
    Частота кадров                : 93,750 кадра/сек (512 SPF)
    Битовая глубина               : 24 бит
    Метод сжатия                  : С потерями
    Размер потока                 : 1,13 Гбайт (7%)
    Заголовок                     : Д.Строев
    Язык                          : Russian
    Default                       : Нет
    Forced                        : Нет
    
    Аудио #6
    Идентификатор                 : 7
    Формат                        : AC-3
    Формат/Информация             : Audio Coding 3
    Коммерческое название         : Dolby Digital
    Идентификатор кодека          : A_AC3
    Продолжительность             : 1 ч. 46 м.
    Вид битрейта                  : Постоянный
    Битрейт                       : 384 Кбит/сек
    Каналы                        : 6 каналов
    Channel layout                : L R C LFE Ls Rs
    Частота                       : 48,0 КГц
    Частота кадров                : 31,250 кадров/сек (1536 SPF)
    Метод сжатия                  : С потерями
    Размер потока                 : 294 Мбайт (2%)
    Заголовок                     : М.Чадов
    Язык                          : Russian
    Service kind                  : Complete Main
    Default                       : Нет
    Forced                        : Нет
    
    Аудио #7
    Идентификатор                 : 8
    Формат                        : AC-3
    Формат/Информация             : Audio Coding 3
    Коммерческое название         : Dolby Digital
    Идентификатор кодека          : A_AC3
    Продолжительность             : 1 ч. 46 м.
    Вид битрейта                  : Постоянный
    Битрейт                       : 384 Кбит/сек
    Каналы                        : 6 каналов
    Channel layout                : L R C LFE Ls Rs
    Частота                       : 48,0 КГц
    Частота кадров                : 31,250 кадров/сек (1536 SPF)
    Метод сжатия                  : С потерями
    Размер потока                 : 294 Мбайт (2%)
    Заголовок                     : В.Замез aka zamez
    Язык                          : Russian
    Service kind                  : Complete Main
    Default                       : Нет
    Forced                        : Нет
    
    Аудио #8
    Идентификатор                 : 9
    Формат                        : AC-3
    Формат/Информация             : Audio Coding 3
    Коммерческое название         : Dolby Digital
    Идентификатор кодека          : A_AC3
    Продолжительность             : 1 ч. 46 м.
    Вид битрейта                  : Постоянный
    Битрейт                       : 448 Кбит/сек
    Каналы                        : 6 каналов
    Channel layout                : L R C LFE Ls Rs
    Частота                       : 48,0 КГц
    Частота кадров                : 31,250 кадров/сек (1536 SPF)
    Метод сжатия                  : С потерями
    Размер потока                 : 342 Мбайт (2%)
    Заголовок                     : Украинский дубляж
    Язык                          : Ukrainian
    Service kind                  : Complete Main
    Default                       : Нет
    Forced                        : Нет
    
    Аудио #9
    Идентификатор                 : 10
    Формат                        : E-AC-3
    Формат/Информация             : Enhanced AC-3
    Коммерческое название         : Dolby Digital Plus
    Идентификатор кодека          : A_EAC3
    Продолжительность             : 1 ч. 47 м.
    Вид битрейта                  : Постоянный
    Битрейт                       : 640 Кбит/сек
    Каналы                        : 6 каналов
    Channel layout                : L R C LFE Ls Rs
    Частота                       : 48,0 КГц
    Частота кадров                : 31,250 кадров/сек (1536 SPF)
    Метод сжатия                  : С потерями
    Размер потока                 : 490 Мбайт (3%)
    Заголовок                     : Amazon
    Язык                          : German
    Service kind                  : Complete Main
    Default                       : Нет
    Forced                        : Нет
    
    Аудио #10
    Идентификатор                 : 11
    Формат                        : DTS
    Формат/Информация             : Digital Theater Systems
    Идентификатор кодека          : A_DTS
    Продолжительность             : 1 ч. 46 м.
    Вид битрейта                  : Постоянный
    Битрейт                       : 1 509 Кбит/сек
    Каналы                        : 6 каналов
    Channel layout                : C L R Ls Rs LFE
    Частота                       : 48,0 КГц
    Частота кадров                : 93,750 кадра/сек (512 SPF)
    Битовая глубина               : 24 бит
    Метод сжатия                  : С потерями
    Размер потока                 : 1,13 Гбайт (7%)
    Заголовок                     : Original Eng
    Язык                          : English
    Default                       : Нет
    Forced                        : Нет
    
    Аудио #11
    Идентификатор                 : 12
    Формат                        : AC-3
    Формат/Информация             : Audio Coding 3
    Коммерческое название         : Dolby Digital
    Идентификатор кодека          : A_AC3
    Продолжительность             : 1 ч. 46 м.
    Вид битрейта                  : Постоянный
    Битрейт                       : 192 Кбит/сек
    Каналы                        : 2 канала
    Channel layout                : L R
    Частота                       : 48,0 КГц
    Частота кадров                : 31,250 кадров/сек (1536 SPF)
    Метод сжатия                  : С потерями
    Размер потока                 : 147 Мбайт (1%)
    Заголовок                     : Комментарий Роберта Родригеса и Нимрода Антала
    Язык                          : English
    Service kind                  : Complete Main
    Default                       : Нет
    Forced                        : Нет
    
    Текст #1
    Идентификатор                 : 13
    Формат                        : UTF-8
    Идентификатор кодека          : S_TEXT/UTF8
    Идентификатор кодека          : UTF-8 Plain Text
    Продолжительность             : 1 ч. 39 м.
    Битрейт                       : 39 бит/сек
    Count of elements             : 749
    Размер потока                 : 29,0 Кбайт (0%)
    Заголовок                     : RUS
    Язык                          : Russian
    Default                       : Нет
    Forced                        : Нет
    
    Текст #2
    Идентификатор                 : 14
    Формат                        : UTF-8
    Идентификатор кодека          : S_TEXT/UTF8
    Идентификатор кодека          : UTF-8 Plain Text
    Продолжительность             : 1 ч. 45 м.
    Битрейт                       : 29 бит/сек
    Count of elements             : 714
    Размер потока                 : 23,0 Кбайт (0%)
    Заголовок                     : RUS - v1
    Язык                          : Russian
    Default                       : Нет
    Forced                        : Нет
    
    Текст #3
    Идентификатор                 : 15
    Формат                        : UTF-8
    Идентификатор кодека          : S_TEXT/UTF8
    Идентификатор кодека          : UTF-8 Plain Text
    Продолжительность             : 1 ч. 39 м.
    Битрейт                       : 31 бит/сек
    Count of elements             : 713
    Размер потока                 : 23,0 Кбайт (0%)
    Заголовок                     : RUS - v2
    Язык                          : Russian
    Default                       : Нет
    Forced                        : Нет
    
    Текст #4
    Идентификатор                 : 16
    Формат                        : UTF-8
    Идентификатор кодека          : S_TEXT/UTF8
    Идентификатор кодека          : UTF-8 Plain Text
    Продолжительность             : 1 ч. 39 м.
    Битрейт                       : 28 бит/сек
    Count of elements             : 554
    Размер потока                 : 21,0 Кбайт (0%)
    Заголовок                     : RUS - v3
    Язык                          : Russian
    Default                       : Нет
    Forced                        : Нет
    
    Текст #5
    Идентификатор                 : 17
    Формат                        : UTF-8
    Идентификатор кодека          : S_TEXT/UTF8
    Идентификатор кодека          : UTF-8 Plain Text
    Продолжительность             : 1 ч. 45 м.
    Битрейт                       : 29 бит/сек
    Count of elements             : 714
    Размер потока                 : 23,0 Кбайт (0%)
    Заголовок                     : RUS - v4
    Язык                          : Russian
    Default                       : Нет
    Forced                        : Нет
    
    Текст #6
    Идентификатор                 : 18
    Формат                        : UTF-8
    Идентификатор кодека          : S_TEXT/UTF8
    Идентификатор кодека          : UTF-8 Plain Text
    Продолжительность             : 1 ч. 38 м.
    Битрейт                       : 37 бит/сек
    Count of elements             : 765
    Размер потока                 : 26,9 Кбайт (0%)
    Заголовок                     : RUS - Egor Motygin
    Язык                          : Russian
    Default                       : Нет
    Forced                        : Нет
    
    Текст #7
    Идентификатор                 : 19
    Формат                        : UTF-8
    Идентификатор кодека          : S_TEXT/UTF8
    Идентификатор кодека          : UTF-8 Plain Text
    Продолжительность             : 1 ч. 42 м.
    Битрейт                       : 235 бит/сек
    Count of elements             : 2163
    Размер потока                 : 176 Кбайт (0%)
    Заголовок                     : Комментарий Роберта Родригеса и Нимрода Антала
    Язык                          : Russian
    Default                       : Нет
    Forced                        : Нет
    
    Текст #8
    Идентификатор                 : 20
    Формат                        : UTF-8
    Идентификатор кодека          : S_TEXT/UTF8
    Идентификатор кодека          : UTF-8 Plain Text
    Продолжительность             : 1 ч. 37 м.
    Битрейт                       : 38 бит/сек
    Count of elements             : 748
    Размер потока                 : 27,6 Кбайт (0%)
    Заголовок                     : UKR
    Язык                          : Ukrainian
    Default                       : Нет
    Forced                        : Нет
    
    Текст #9
    Идентификатор                 : 21
    Формат                        : UTF-8
    Идентификатор кодека          : S_TEXT/UTF8
    Идентификатор кодека          : UTF-8 Plain Text
    Продолжительность             : 1 ч. 45 м.
    Битрейт                       : 26 бит/сек
    Count of elements             : 1000
    Размер потока                 : 20,9 Кбайт (0%)
    Заголовок                     : SDH
    Язык                          : English
    Default                       : Нет
    Forced                        : Нет
    
    Меню
    00:00:00.000                  : Skydive to Hell
    00:05:27.035                  : Teaming Up
    00:07:57.394                  : Alien Shrine
    00:13:33.521                  : Chosen
    00:17:26.587                  : The Cage
    00:20:02.410                  : Seeing Things
    00:23:46.300                  : Need a New Plan
    00:26:19.119                  : Hell Hounds
    00:31:34.518                  : The Trap
    00:34:56.511                  : Super Predator Camp
    00:38:24.719                  : Yautja Prisoner
    00:41:57.056                  : Jungle Myth
    00:46:12.979                  : Man Hunt
    00:49:57.786                  : The One That Got Away
    00:53:27.955                  : Noland's Hideout
    00:57:43.126                  : Edge of the Preserve
    01:02:11.853                  : Downtime
    01:05:48.903                  : Big Dog Berserker
    01:09:38.758                  : Escape the Hideout
    01:14:16.994                  : Hunt is On
    01:16:25.539                  : Samurai Showdown
    01:19:26.929                  : Leave Him
    01:21:34.473                  : Release the Yautja
    01:23:51.902                  : Berserker vs Yautja
    01:27:33.707                  : Edwin's Pit
    01:30:48.234                  : Bait
    01:34:12.564                  : Royce Hits Back
    01:41:17.697                  : Credits
       



Хищник

Оригинал: Predator
Дата: 2018
Слоган: You'll never see him coming. Ты никогда не увидишь его приближения.
Режиссёр: Шейн Блэк
Автор сценария: Шейн Блэк, Фред Деккер, Джим Томас, Джон Томас
В главных ролях: Бойд Холбрук, Оливия Манн, Джейкоб Трамбле, Ивонн Страховски
Оператор: Ларри Фонг
Композитор: Генри Джекман
IMDb: ID 3829266
Оказал влияние:

Книга Хищник. Официальная новеллизация (The Predator: the official movie novelization) Кристофер Голден (Christopher Golden) и Марк Моррис (Mark Morris).

Книга Хищник. Охотники и жертвы. Официальный приквел (Predator. Hunters and Hunted) Джеймс А. Мур (James A. Moore).

Аннотация:
Главный герой рейнджер-снайпер Куинн Маккенна чудом заполучил маску и наруч Хищника, как доказательство существования инопланетных существ. Отправив к себе домой находку, его сын-аутист, который умеет невероятно быстро учить языки, в одиночку разбирается со внеземной технологией и невольно становится ключевой фигурой в опасной игре. Но у Хищников на мальчика есть свои планы.

Официальный трейлер

The Predator | Official Trailer [HD] | 20th Century FOX

Постеры и кадры из фильма

Картинки кликабельны для удобного просмотра в высоком качестве.

Копьё Алексы Вудс от ШрамаШлем Охотника ДжунглейФото Охотника ДжунглейФото Городского ОхотникаСмерть Плута от АссасинаPredator Killer

Звуковой ряд фильма

  • MP3 Predator 2018

  • FLAC Predator 2018

Релизы фильма

  • FullHD 1080p


    Техническая информация о файле Predator_2018_1080p.mkv

    Общее
    Уникальный идентификатор                 : 297587018814614101199912344632412533101 (0xDFE12CD0B4B5DD26043028E4498AF16D)
    Полное имя                               : Predator_2018_1080p.mkv
    Формат                                   : Matroska
    Версия формата                           : Version 4
    Размер файла                             : 5,96 Гбайт
    Продолжительность                        : 1 ч. 42 м.
    Общий поток                              : 8 314 Кбит/сек
    Название фильма                          : The Predator 2018 =File-vadim=
    Дата кодирования                         : UTC 2020-11-12 22:42:10
    Программа кодирования                    : mkvmerge v51.0.0 ('I Wish') 32-bit
    Библиотека кодирования                   : libebml v1.4.0 + libmatroska v1.6.2
    Attachments                              : poster.png
    
    Видео
    Идентификатор                            : 1
    Формат                                   : AVC
    Формат/Информация                        : Advanced Video Codec
    Профиль формата                          : High@L4
    Настройки формата                        : CABAC / 4 Ref Frames
    Параметр CABAC формата                   : Да
    Параметр RefFrames формата               : 4 кадра
    Идентификатор кодека                     : V_MPEG4/ISO/AVC
    Продолжительность                        : 1 ч. 42 м.
    Битрейт                                  : 5 120 Кбит/сек
    Ширина                                   : 1 920 пикселей
    Высота                                   : 1 080 пикселей
    Соотношение сторон                       : 16:9
    Режим частоты кадров                     : Постоянный
    Частота кадров                           : 25,000 кадров/сек
    Цветовое пространство                    : YUV
    Субдискретизация насыщенности            : 4:2:0
    Битовая глубина                          : 8 бит
    Тип развёртки                            : Прогрессивная
    Бит/(Пиксели*Кадры)                      : 0.099
    Размер потока                            : 3,67 Гбайт (61%)
    Заголовок                                : The Predator 2018 =File-vadim=
    Библиотека кодирования                   : x264 core 142
    Язык                                     : English
    Default                                  : Да
    Forced                                   : Нет
    
    Аудио #1
    Идентификатор                            : 2
    Формат                                   : AAC LC
    Формат/Информация                        : Advanced Audio Codec Low Complexity
    Идентификатор кодека                     : A_AAC-2
    Продолжительность                        : 1 ч. 42 м.
    Битрейт                                  : 576 Кбит/сек
    Каналы                                   : 6 каналов
    Channel layout                           : C L R Ls Rs LFE
    Частота                                  : 48,0 КГц
    Частота кадров                           : 46,875 кадров/сек (1024 SPF)
    Метод сжатия                             : С потерями
    Размер потока                            : 423 Мбайт (7%)
    Заголовок                                : Дубляж AAC LC, 6 ch, 576 Кбит/сек
    Язык                                     : Russian
    Default                                  : Да
    Forced                                   : Да
    
    Аудио #2
    Идентификатор                            : 3
    Формат                                   : AC-3
    Формат/Информация                        : Audio Coding 3
    Коммерческое название                    : Dolby Digital
    Идентификатор кодека                     : A_AC3
    Продолжительность                        : 1 ч. 42 м.
    Вид битрейта                             : Постоянный
    Битрейт                                  : 192 Кбит/сек
    Каналы                                   : 2 канала
    Channel layout                           : L R
    Частота                                  : 48,0 КГц
    Частота кадров                           : 31,250 кадров/сек (1536 SPF)
    Метод сжатия                             : С потерями
    Размер потока                            : 141 Мбайт (2%)
    Заголовок                                : DVO TV Play Baltics
    Язык                                     : Russian
    Service kind                             : Complete Main
    Default                                  : Нет
    Forced                                   : Нет
    
    Аудио #3
    Идентификатор                            : 4
    Формат                                   : AC-3
    Формат/Информация                        : Audio Coding 3
    Коммерческое название                    : Dolby Digital
    Идентификатор кодека                     : A_AC3
    Продолжительность                        : 1 ч. 42 м.
    Вид битрейта                             : Постоянный
    Битрейт                                  : 192 Кбит/сек
    Каналы                                   : 2 канала
    Channel layout                           : L R
    Частота                                  : 48,0 КГц
    Частота кадров                           : 31,250 кадров/сек (1536 SPF)
    Метод сжатия                             : С потерями
    Размер потока                            : 141 Мбайт (2%)
    Заголовок                                : MVO HDRezka Studio
    Язык                                     : Russian
    Service kind                             : Complete Main
    Default                                  : Нет
    Forced                                   : Нет
    
    Аудио #4
    Идентификатор                            : 5
    Формат                                   : AC-3
    Формат/Информация                        : Audio Coding 3
    Коммерческое название                    : Dolby Digital
    Идентификатор кодека                     : A_AC3
    Продолжительность                        : 1 ч. 42 м.
    Вид битрейта                             : Постоянный
    Битрейт                                  : 448 Кбит/сек
    Каналы                                   : 6 каналов
    Channel layout                           : L R C LFE Ls Rs
    Частота                                  : 48,0 КГц
    Частота кадров                           : 31,250 кадров/сек (1536 SPF)
    Метод сжатия                             : С потерями
    Размер потока                            : 329 Мбайт (5%)
    Заголовок                                : AVO Gavrilov
    Язык                                     : Russian
    Service kind                             : Complete Main
    Default                                  : Нет
    Forced                                   : Нет
    
    Аудио #5
    Идентификатор                            : 6
    Формат                                   : AC-3
    Формат/Информация                        : Audio Coding 3
    Коммерческое название                    : Dolby Digital
    Идентификатор кодека                     : A_AC3
    Продолжительность                        : 1 ч. 42 м.
    Вид битрейта                             : Постоянный
    Битрейт                                  : 448 Кбит/сек
    Каналы                                   : 6 каналов
    Channel layout                           : L R C LFE Ls Rs
    Частота                                  : 48,0 КГц
    Частота кадров                           : 31,250 кадров/сек (1536 SPF)
    Метод сжатия                             : С потерями
    Размер потока                            : 329 Мбайт (5%)
    Заголовок                                : AVO Jivov
    Язык                                     : Russian
    Service kind                             : Complete Main
    Default                                  : Нет
    Forced                                   : Нет
    
    Аудио #6
    Идентификатор                            : 7
    Формат                                   : AC-3
    Формат/Информация                        : Audio Coding 3
    Коммерческое название                    : Dolby Digital
    Идентификатор кодека                     : A_AC3
    Продолжительность                        : 1 ч. 42 м.
    Вид битрейта                             : Постоянный
    Битрейт                                  : 448 Кбит/сек
    Каналы                                   : 6 каналов
    Channel layout                           : L R C LFE Ls Rs
    Частота                                  : 48,0 КГц
    Частота кадров                           : 31,250 кадров/сек (1536 SPF)
    Метод сжатия                             : С потерями
    Размер потока                            : 329 Мбайт (5%)
    Заголовок                                : AVPO Serbin
    Язык                                     : Russian
    Service kind                             : Complete Main
    Default                                  : Нет
    Forced                                   : Нет
    
    Аудио #7
    Идентификатор                            : 8
    Формат                                   : AC-3
    Формат/Информация                        : Audio Coding 3
    Коммерческое название                    : Dolby Digital
    Идентификатор кодека                     : A_AC3
    Продолжительность                        : 1 ч. 42 м.
    Вид битрейта                             : Постоянный
    Битрейт                                  : 448 Кбит/сек
    Каналы                                   : 6 каналов
    Channel layout                           : L R C LFE Ls Rs
    Частота                                  : 48,0 КГц
    Частота кадров                           : 31,250 кадров/сек (1536 SPF)
    Метод сжатия                             : С потерями
    Размер потока                            : 329 Мбайт (5%)
    Заголовок                                : AVO Yarockiy
    Язык                                     : Russian
    Service kind                             : Complete Main
    Default                                  : Нет
    Forced                                   : Нет
    
    Аудио #8
    Идентификатор                            : 9
    Формат                                   : AC-3
    Формат/Информация                        : Audio Coding 3
    Коммерческое название                    : Dolby Digital
    Идентификатор кодека                     : A_AC3
    Продолжительность                        : 1 ч. 42 м.
    Вид битрейта                             : Постоянный
    Битрейт                                  : 448 Кбит/сек
    Каналы                                   : 6 каналов
    Channel layout                           : L R C LFE Ls Rs
    Частота                                  : 48,0 КГц
    Частота кадров                           : 31,250 кадров/сек (1536 SPF)
    Метод сжатия                             : С потерями
    Размер потока                            : 329 Мбайт (5%)
    Заголовок                                : Original
    Язык                                     : English
    Service kind                             : Complete Main
    Default                                  : Нет
    Forced                                   : Нет
    
    Текст #1
    Идентификатор                            : 10
    Формат                                   : UTF-8
    Идентификатор кодека                     : S_TEXT/UTF8
    Идентификатор кодека/Информация          : UTF-8 Plain Text
    Продолжительность                        : 1 ч. 41 м.
    Битрейт                                  : 1 бит/сек
    Count of elements                        : 22
    Размер потока                            : 1,02 Кбайт (0%)
    Заголовок                                : Rus Forced
    Язык                                     : Russian
    Default                                  : Да
    Forced                                   : Нет
    
    Текст #2
    Идентификатор                            : 11
    Формат                                   : UTF-8
    Идентификатор кодека                     : S_TEXT/UTF8
    Идентификатор кодека/Информация          : UTF-8 Plain Text
    Продолжительность                        : 1 ч. 41 м.
    Битрейт                                  : 73 бит/сек
    Count of elements                        : 1270
    Размер потока                            : 54,4 Кбайт (0%)
    Заголовок                                : Rus
    Язык                                     : Russian
    Default                                  : Нет
    Forced                                   : Нет
    
    Текст #3
    Идентификатор                            : 12
    Формат                                   : UTF-8
    Идентификатор кодека                     : S_TEXT/UTF8
    Идентификатор кодека/Информация          : UTF-8 Plain Text
    Продолжительность                        : 1 ч. 34 м.
    Битрейт                                  : 51 бит/сек
    Count of elements                        : 1366
    Размер потока                            : 35,6 Кбайт (0%)
    Заголовок                                : English
    Язык                                     : English
    Default                                  : Нет
    Forced                                   : Нет
    
    Текст #4
    Идентификатор                            : 13
    Формат                                   : UTF-8
    Идентификатор кодека                     : S_TEXT/UTF8
    Идентификатор кодека/Информация          : UTF-8 Plain Text
    Продолжительность                        : 1 ч. 34 м.
    Битрейт                                  : 62 бит/сек
    Count of elements                        : 1707
    Размер потока                            : 43,1 Кбайт (0%)
    Заголовок                                : Eng SDH
    Язык                                     : English
    Default                                  : Нет
    Forced                                   : Нет
      



Хищник: Праздничный спецвыпуск

Оригинал: Predator: Holiday Special
Дата: 2018
Режиссёры: Дэвид Х. Брукс, Алекс Камер
Автор сценария: Matt Motschenbacher, Мэттью Сенрейч, Джим Томас
Оператор: Элдер Сунь

The Predator | Holiday Special | 20th Century FOX



Хищник: Череп

Оригинал: Predator: Skull (рабочее название)
Дата: 2022
Слоган:
Режиссёр: Дэн Трахтенберг
Автор сценария: Патрик Эйсон
В главных ролях: Эмбер Мидфандер (Amber Midthunder)
Оператор:
Композитор:
IMDb:
Оказал влияние:

Доступная информация о фильме:

1) Ки (Kee), женщина племени команчи, которая идет против гендерных норм и традиций своего народа, чтобы стать воином. Много лет назад – во времена, когда ещё никто из европейцев не вторгался на их земли, – у народа команчей было общество с жёсткой иерархией и гендерными нормами. Ки очень близка со своим младшим братом Таабе (Taabe), которого готовят стать лидером. Такая же способная, как и любой молодой человек в племени, Ки всегда была учителем и источником вдохновения для брата Таабе. Для команчей она ​​Паци (Patsi) - старшая сестра, которая помогает ему сформироваться как личности. Ки говорит правду и понимает то, чего не видят другие. Сорванец, она хочет проявить себя в мужском мире команчей. Когда опасность угрожает им всем - Ки намеревается доказать, что она так же способна, как и любой молодой воин.

2) Режиссёр сравнивает будущий фильм с фильмом Выживший с Леонардо Ди Каприо.

3) Идея сделать центральным персонажем женщину восходит к мысли, что, как и Датчу, сыгранному Арнольдом Шварценеггером в оригинальной ленте 1987 года, героине придётся проявлять изобретательность в экстремальных условиях, чтобы не стать очередным трофеем для пришельца.

4) Эмбер Мидфандер выбрана на роль из-за её индейских корней.

Дополнительные материалы

Вселенная Хищников.
Хищник. Комиксы. Одиночка.
Хищник в комиксах. Против всех.
Хищник. Книги. Одиночка.
Хищник в книгах. Против всех.
Хищник в фильмах. Против всех.

Дата последней правки: 2021-09-04 16:03:03

    Twitter   


Разделы

Главная
Новости
Ворох бумаг
Видео Linux
Игры в Linux
Безопасность
Статьи о FreeBSD
Статьи об Ubuntu
Статьи о Snappy
Статьи об Ubuntu Phone
Статьи о Kubuntu
Статьи о Xubuntu
Статьи о Lubuntu
Статьи об Open Source
Карта сайта

Лучшее на сайте:

1С под Linux.   Ускорение Ubuntu.   21 пример iptables.   Цикл статей о Ceph.   Убунту в дикой среде.   Ubuntu Linux на SSD.   Ubuntu для блондинок.   Поддержка железа в Linux.   BTSync на службе у админа.   Андроид программы в Ubuntu.   Прокидывание портов для p2p.   Анти СПАМ в Postfix.  



Группа поддержки