Авторские статьи

Хищник против Чужих. Фильмы.


Данная статья собирает в одном месте все известные фильмы про борьбу Хищника с Чужими для удобства скачивания и дальнейшего просмотра. На просторах Интернета вы легко найдёте данные фильмы в различных форматах и любого качества. Не люблю чёрные полосы по горизонтали и фанат Open Matte (скрытое кашети́рование), поэтому в статье вы найдёте именно данные релизы, которые проверены лично и будут сидироваться.

Хищник против Чужих. Aliens versus Predator.

Хищник (англ. Predator) - древняя инопланетная раса охотников, являются одним из самых развитых инопланетных видов. Самоназвание Хищников - Хиш-Ку-Тен, каста охотников зовёт себя яутжа. Это гуманоидные создания высотой в два с половиной метра и массой 150-200 килограммов. Зрение восприимчиво к тепловому излучению. Цвет глаз - зелёный или жёлтый. На голове яутжа - щетинистые волосы, уложенные в прическу из многочисленных коротких косичек. Цвет кожи — жёлтый, с тёмными пятнами отмершей кожи. Кровь - зелёная, светящаяся в темноте. Срок жизни Хищника около 300 земных лет.

Чужие (англ. Alien) или Ксеномо́рфы (лат. Xenomorph), также Xenomorph XX121 (лат. Internecivus raptus, рус. Кровожадный Насильник). В комиксах фигурирует название Linguafoeda acheronsis (существо c Ахерона с отвратительным языком), в честь планетоида LV-426 Ахерон, где впервые были обнаружены эти существа. Сюжет фильма Прометей раскрывает происхождение Чужих как вида − он был разработан и искусственно выведен Космическими жокеями в качестве биологического оружия, которое впоследствии вышло из-под контроля.


Чужой против Хищника

Оригинал: AVP: Alien vs Predator
Дата: 13 августа 2004
Слоган: Кто бы ни победил - человечество проиграет.
Режиссёр: Пол Уильям Скотт Андерсон
Автор сценария: Пол Уильям Скотт Андерсон
В главных ролях: Санаа Лэтэн, Лэнс Хенриксен, Рауль Бова, Юэн Бремнер, Колин Сэмон
Оператор: Дэвид Джонсон
Композитор: Харальд Клозер
IMDb: ID 0370263
Аннотация:
Хищники в древности много раз посещали Землю для проведения своих ритуалов. Они научили людей строительству, а те взамен поклонялись им как богам и жертвовали собой, чтобы на свет для охоты появлялись Чужие. Самая первая пирамида, построенная самими Хищниками, находится на острове Буве в Антарктиде. Хищники активировали в ней процесс воспроизведения Ксеноморфов и теперь осталось лишь заманить людей и начать охоту.

Официальный трейлер

AVP: Alien vs. Predator (2004) Official Trailer #1

Вырезанные сцены

Постеры и кадры из фильма

Картинки кликабельны для удобного просмотра в высоком качестве.

Звуковой ряд фильма

  • MP3 AVP: Alien vs Predator 2004

  • FLAC AVP: Alien vs Predator 2004

Релизы фильма

  • FullHD 1080p


    Техническая информация о файле AVP_Alien_vs_Predator_2004_1080p.mkv

    Общее
    Уникальный идентификатор      : 186063288557975843484439683496624646908 (0x8BFA7C63D809341B836ADA370ED9EAFC)
    Полное имя                    : AVP_Alien_vs_Predator_2004_1080p.mkv
    Формат                        : Matroska
    Версия формата                : Version 4
    Размер файла                  : 11,9 Гбайт
    Продолжительность             : 1 ч. 40 м.
    Режим общего битрейта         : Переменный
    Общий поток                   : 16,9 Мбит/сек
    Дата кодирования              : UTC 2017-12-07 15:27:18
    Программа кодирования         : mkvmerge v18.0.0 ('Apricity') 64-bit
    Библиотека кодирования        : libebml v1.3.5 + libmatroska v1.4.8
    
    Видео
    Идентификатор                 : 1
    Формат                        : AVC
    Формат/Информация             : Advanced Video Codec
    Профиль формата               : High@L4
    Настройки формата             : CABAC / 4 Ref Frames
    Параметр CABAC формата        : Да
    Параметр RefFrames формата    : 4 кадра
    Идентификатор кодека          : V_MPEG4/ISO/AVC
    Продолжительность             : 1 ч. 40 м.
    Вид битрейта                  : Переменный
    Битрейт                       : 12,4 Мбит/сек
    Максимальный битрейт          : 15,0 Мбит/сек
    Ширина                        : 1 920 пикселей
    Высота                        : 1 080 пикселей
    Соотношение сторон            : 16:9
    Режим частоты кадров          : Постоянный
    Частота кадров                : 23,976 (24000/1001) кадра/сек
    Цветовое пространство         : YUV
    Субдискретизация насыщенности : 4:2:0
    Битовая глубина               : 8 бит
    Тип развёртки                 : Прогрессивная
    Бит/(Пиксели*Кадры)           : 0.249
    Размер потока                 : 8,72 Гбайт (73%)
    Default                       : Да
    Forced                        : Нет
    Цветовой диапазон             : Limited
    Основные цвета                : BT.709
    Характеристики трансфера      : BT.709
    Коэффициенты матрицы          : BT.709
    
    Аудио #1
    Идентификатор                 : 2
    Формат                        : DTS
    Формат/Информация             : Digital Theater Systems
    Идентификатор кодека          : A_DTS
    Продолжительность             : 1 ч. 40 м.
    Вид битрейта                  : Постоянный
    Битрейт                       : 768 Кбит/сек
    Каналы                        : 6 каналов
    Channel layout                : C L R Ls Rs LFE
    Частота                       : 48,0 КГц
    Частота кадров                : 93,750 кадра/сек (512 SPF)
    Битовая глубина               : 24 бит
    Метод сжатия                  : С потерями
    Размер потока                 : 554 Мбайт (5%)
    Заголовок                     : DUB CEE
    Язык                          : Russian
    Default                       : Да
    Forced                        : Нет
    
    Аудио #2
    Идентификатор                 : 3
    Формат                        : AC-3
    Формат/Информация             : Audio Coding 3
    Коммерческое название         : Dolby Digital
    Идентификатор кодека          : A_AC3
    Продолжительность             : 1 ч. 40 м.
    Вид битрейта                  : Постоянный
    Битрейт                       : 192 Кбит/сек
    Каналы                        : 2 канала
    Channel layout                : L R
    Частота                       : 48,0 КГц
    Частота кадров                : 31,250 кадров/сек (1536 SPF)
    Метод сжатия                  : С потерями
    Размер потока                 : 139 Мбайт (1%)
    Заголовок                     : MVO
    Service kind                  : Complete Main
    Default                       : Нет
    Forced                        : Нет
    
    Аудио #3
    Идентификатор                 : 4
    Формат                        : AC-3
    Формат/Информация             : Audio Coding 3
    Коммерческое название         : Dolby Digital
    Идентификатор кодека          : A_AC3
    Продолжительность             : 1 ч. 40 м.
    Вид битрейта                  : Постоянный
    Битрейт                       : 448 Кбит/сек
    Каналы                        : 6 каналов
    Channel layout                : L R C LFE Ls Rs
    Частота                       : 48,0 КГц
    Частота кадров                : 31,250 кадров/сек (1536 SPF)
    Метод сжатия                  : С потерями
    Размер потока                 : 323 Мбайт (3%)
    Заголовок                     : DVO (Tycoon)
    Язык                          : Russian
    Service kind                  : Complete Main
    Default                       : Нет
    Forced                        : Нет
    
    Аудио #4
    Идентификатор                 : 5
    Формат                        : AC-3
    Формат/Информация             : Audio Coding 3
    Коммерческое название         : Dolby Digital
    Идентификатор кодека          : A_AC3
    Продолжительность             : 1 ч. 40 м.
    Вид битрейта                  : Постоянный
    Битрейт                       : 192 Кбит/сек
    Каналы                        : 2 канала
    Channel layout                : L R
    Частота                       : 48,0 КГц
    Частота кадров                : 31,250 кадров/сек (1536 SPF)
    Метод сжатия                  : С потерями
    Размер потока                 : 139 Мбайт (1%)
    Заголовок                     : DVO (Олег Куценко и Людмила Ильина)
    Service kind                  : Complete Main
    Default                       : Нет
    Forced                        : Нет
    
    Аудио #5
    Идентификатор                 : 6
    Формат                        : AC-3
    Формат/Информация             : Audio Coding 3
    Коммерческое название         : Dolby Digital
    Идентификатор кодека          : A_AC3
    Продолжительность             : 1 ч. 40 м.
    Вид битрейта                  : Постоянный
    Битрейт                       : 192 Кбит/сек
    Каналы                        : 2 канала
    Channel layout                : L R
    Частота                       : 48,0 КГц
    Частота кадров                : 31,250 кадров/сек (1536 SPF)
    Метод сжатия                  : С потерями
    Размер потока                 : 139 Мбайт (1%)
    Заголовок                     : AVO (Сергей Визгунов)
    Язык                          : Russian
    Service kind                  : Complete Main
    Default                       : Нет
    Forced                        : Нет
    
    Аудио #6
    Идентификатор                 : 7
    Формат                        : AC-3
    Формат/Информация             : Audio Coding 3
    Коммерческое название         : Dolby Digital
    Идентификатор кодека          : A_AC3
    Продолжительность             : 1 ч. 40 м.
    Вид битрейта                  : Постоянный
    Битрейт                       : 192 Кбит/сек
    Каналы                        : 2 канала
    Channel layout                : L R
    Частота                       : 48,0 КГц
    Частота кадров                : 31,250 кадров/сек (1536 SPF)
    Метод сжатия                  : С потерями
    Размер потока                 : 139 Мбайт (1%)
    Заголовок                     : AVO (Юрий Живов)
    Язык                          : Russian
    Service kind                  : Complete Main
    Default                       : Нет
    Forced                        : Нет
    
    Аудио #7
    Идентификатор                 : 8
    Формат                        : AC-3
    Формат/Информация             : Audio Coding 3
    Коммерческое название         : Dolby Digital
    Идентификатор кодека          : A_AC3
    Продолжительность             : 1 ч. 40 м.
    Вид битрейта                  : Постоянный
    Битрейт                       : 192 Кбит/сек
    Каналы                        : 2 канала
    Channel layout                : L R
    Частота                       : 48,0 КГц
    Частота кадров                : 31,250 кадров/сек (1536 SPF)
    Метод сжатия                  : С потерями
    Размер потока                 : 139 Мбайт (1%)
    Заголовок                     : AVO (Алексей Медведев)
    Язык                          : Russian
    Service kind                  : Complete Main
    Default                       : Нет
    Forced                        : Нет
    
    Аудио #8
    Идентификатор                 : 9
    Формат                        : AC-3
    Формат/Информация             : Audio Coding 3
    Коммерческое название         : Dolby Digital
    Идентификатор кодека          : A_AC3
    Продолжительность             : 1 ч. 40 м.
    Вид битрейта                  : Постоянный
    Битрейт                       : 192 Кбит/сек
    Каналы                        : 2 канала
    Channel layout                : L R
    Частота                       : 48,0 КГц
    Частота кадров                : 31,250 кадров/сек (1536 SPF)
    Метод сжатия                  : С потерями
    Размер потока                 : 139 Мбайт (1%)
    Заголовок                     : AVO (Андрей Дольский)
    Язык                          : Russian
    Service kind                  : Complete Main
    Default                       : Нет
    Forced                        : Нет
    
    Аудио #9
    Идентификатор                 : 10
    Формат                        : DTS
    Формат/Информация             : Digital Theater Systems
    Идентификатор кодека          : A_DTS
    Продолжительность             : 1 ч. 40 м.
    Вид битрейта                  : Постоянный
    Битрейт                       : 1 509 Кбит/сек
    Каналы                        : 6 каналов
    Channel layout                : C L R Ls Rs LFE
    Частота                       : 48,0 КГц
    Частота кадров                : 93,750 кадра/сек (512 SPF)
    Битовая глубина               : 24 бит
    Метод сжатия                  : С потерями
    Размер потока                 : 1,06 Гбайт (9%)
    Язык                          : English
    Default                       : Нет
    Forced                        : Нет
    
    Аудио #10
    Идентификатор                 : 11
    Формат                        : E-AC-3
    Формат/Информация             : Enhanced AC-3
    Коммерческое название         : Dolby Digital Plus
    Идентификатор кодека          : A_EAC3
    Продолжительность             : 1 ч. 40 м.
    Вид битрейта                  : Постоянный
    Битрейт                       : 640 Кбит/сек
    Каналы                        : 6 каналов
    Channel layout                : L R C LFE Ls Rs
    Частота                       : 48,0 КГц
    Частота кадров                : 31,250 кадров/сек (1536 SPF)
    Метод сжатия                  : С потерями
    Размер потока                 : 462 Мбайт (4%)
    Заголовок                     : Amazon
    Язык                          : English
    Service kind                  : Complete Main
    Default                       : Нет
    Forced                        : Нет
    
    Текст #1
    Идентификатор                 : 12
    Формат                        : UTF-8
    Идентификатор кодека          : S_TEXT/UTF8
    Идентификатор кодека          : UTF-8 Plain Text
    Продолжительность             : 1 ч. 16 м.
    Битрейт                       : 1 бит/сек
    Count of elements             : 11
    Размер потока                 : 645 байт (0%)
    Заголовок                     : Forced
    Язык                          : Russian
    Default                       : Да
    Forced                        : Нет
    
    Текст #2
    Идентификатор                 : 13
    Формат                        : UTF-8
    Идентификатор кодека          : S_TEXT/UTF8
    Идентификатор кодека          : UTF-8 Plain Text
    Продолжительность             : 1 ч. 39 м.
    Битрейт                       : 38 бит/сек
    Count of elements             : 451
    Размер потока                 : 27,9 Кбайт (0%)
    Язык                          : Russian
    Default                       : Нет
    Forced                        : Нет
    
    Текст #3
    Идентификатор                 : 14
    Формат                        : UTF-8
    Идентификатор кодека          : S_TEXT/UTF8
    Идентификатор кодека          : UTF-8 Plain Text
    Продолжительность             : 1 ч. 38 м.
    Битрейт                       : 23 бит/сек
    Count of elements             : 490
    Размер потока                 : 17,2 Кбайт (0%)
    Язык                          : English
    Default                       : Нет
    Forced                        : Нет
    
    Текст #4
    Идентификатор                 : 15
    Формат                        : UTF-8
    Идентификатор кодека          : S_TEXT/UTF8
    Идентификатор кодека          : UTF-8 Plain Text
    Продолжительность             : 1 ч. 25 м.
    Битрейт                       : 33 бит/сек
    Count of elements             : 667
    Размер потока                 : 21,0 Кбайт (0%)
    Заголовок                     : SHD
    Язык                          : English
    Default                       : Нет
    Forced                        : Нет
    
    Меню
    00:00:10.002                  : en:Something in Sector 14
    00:02:30.110                  : en:Weyland's Offer
    00:06:45.626                  : en:Below the Ice
    00:10:07.942                  : en:The Better Chance
    00:12:49.907                  : en:Three Simple Rules
    00:16:14.724                  : en:Razorback Point
    00:20:30.398                  : en:The Tunnel
    00:23:29.993                  : en:Going Down
    00:25:52.176                  : en:The Pyramid
    00:27:47.708                  : en:Awakening
    00:30:44.093                  : en:First Blood
    00:32:56.099                  : en:Chosen Ones
    00:37:01.595                  : en:The Sarcophagus
    00:39:55.697                  : en:The Spawning
    00:44:39.714                  : en:Prey
    00:48:20.899                  : en:Death Maze
    00:51:26.167                  : en:Battle Zone
    00:56:50.115                  : en:Weyland's Last Stand
    00:58:36.848                  : en:Rite of Passage
    01:01:13.270                  : :Gods and Monsters
    01:04:35.498                  : en:The Enemy of My Enemy
    01:06:12.844                  : en:Alone
    01:08:17.553                  : en:Two Warriors
    01:11:26.366                  : :Allies
    01:14:03.023                  : en:The Nest
    01:16:59.365                  : en:The Fire Down Below
    01:20:35.956                  : en:Blood of the Kill
    01:21:55.704                  : en:The Bitch Is Back
    01:25:31.002                  : en:A Warrior's Token
    01:28:50.034                  : en:End Titles
       



Чужие против Хищника: Реквием

Оригинал: Aliens vs Predator: Requiem
Дата: 2007
Слоган: На Земле каждый услышит твой крик
Режиссёр: Колин и Грег Штраус
Автор сценария: Шэйн Салерно
В главных ролях: Джон Ортис, Стивен Паскуале, Джонни Льюис, Рэйко Эйлесворт
Оператор: Дэниэл Перл
Композитор: Брайан Тайлер
IMDb: ID 0758730
Аннотация:
На борт корабля Хищников подняли павшего в бою Шрама (Scar), из груди которого вылезает отвратительнейший гибрид ЧужеХищник (ПредАлиен, Predalien) по имени Чет (Chet). Чет, Королева Ксеноморфов, устроила на борту побоище, в результате которого корабль был вынужден аварийно сесть рядом с мирным городом. Получив аварийный сигнал, с планеты Хищников для исправления ситуации вылетает опытный ликвидатор, который устранит на своём пути всё и вся.

Официальный трейлер

Aliens vs Predator: Requiem

Вырезанные сцены

Постеры и кадры из фильма

Картинки кликабельны для удобного просмотра в высоком качестве.

Звуковой ряд фильма

  • MP3 Aliens vs Predator: Requiem 2007

  • FLAC Aliens vs Predator: Requiem 2007

Релизы фильма

  • FullHD 1080p


    Техническая информация о файле Aliens_vs_Predator_Requiem_2007_1080p.mkv

    Общее
    Уникальный идентификатор      : 247546046867111114287442549103932585137 (0xBA3BA269D8F9780A8A0B02C08AEDB4B1)
    Полное имя                    : Aliens_vs_Predator_Requiem_2007_1080p.mkv
    Формат                        : Matroska
    Версия формата                : Version 4
    Размер файла                  : 6,19 Гбайт
    Продолжительность             : 1 ч. 33 м.
    Общий поток                   : 9 451 Кбит/сек
    Дата кодирования              : UTC 2019-10-26 16:35:18
    Программа кодирования         : mkvmerge v8.3.0 ('Over the Horizon') 32bit
    Библиотека кодирования        : libebml v1.3.1 + libmatroska v1.4.2
    
    Видео
    Идентификатор                 : 1
    Формат                        : AVC
    Формат/Информация             : Advanced Video Codec
    Профиль формата               : High@L4
    Настройки формата             : CABAC / 4 Ref Frames
    Параметр CABAC формата        : Да
    Параметр RefFrames формата    : 4 кадра
    Идентификатор кодека          : V_MPEG4/ISO/AVC
    Продолжительность             : 1 ч. 33 м.
    Битрейт                       : 7 593 Кбит/сек
    Ширина                        : 1 920 пикселей
    Высота                        : 1 080 пикселей
    Соотношение сторон            : 16:9
    Режим частоты кадров          : Постоянный
    Частота кадров                : 23,976 (24000/1001) кадра/сек
    Цветовое пространство         : YUV
    Субдискретизация насыщенности : 4:2:0
    Битовая глубина               : 8 бит
    Тип развёртки                 : Прогрессивная
    Бит/(Пиксели*Кадры)           : 0.153
    Размер потока                 : 4,97 Гбайт (80%)
    Default                       : Да
    Forced                        : Нет
    Цветовой диапазон             : Limited
    Основные цвета                : BT.709
    Характеристики трансфера      : BT.709
    Коэффициенты матрицы          : BT.709
    
    Аудио #1
    Идентификатор                 : 2
    Формат                        : DTS
    Формат/Информация             : Digital Theater Systems
    Идентификатор кодека          : A_DTS
    Продолжительность             : 1 ч. 33 м.
    Вид битрейта                  : Постоянный
    Битрейт                       : 768 Кбит/сек
    Каналы                        : 6 каналов
    Channel layout                : C L R Ls Rs LFE
    Частота                       : 48,0 КГц
    Частота кадров                : 93,750 кадра/сек (512 SPF)
    Битовая глубина               : 24 бит
    Метод сжатия                  : С потерями
    Размер потока                 : 515 Мбайт (8%)
    Заголовок                     : DUB
    Язык                          : Russian
    Default                       : Да
    Forced                        : Нет
    
    Аудио #2
    Идентификатор                 : 3
    Формат                        : AC-3
    Формат/Информация             : Audio Coding 3
    Коммерческое название         : Dolby Digital
    Идентификатор кодека          : A_AC3
    Продолжительность             : 1 ч. 33 м.
    Вид битрейта                  : Постоянный
    Битрейт                       : 448 Кбит/сек
    Каналы                        : 6 каналов
    Channel layout                : L R C LFE Ls Rs
    Частота                       : 48,0 КГц
    Частота кадров                : 31,250 кадров/сек (1536 SPF)
    Метод сжатия                  : С потерями
    Размер потока                 : 300 Мбайт (5%)
    Заголовок                     : AVO
    Язык                          : Russian
    Service kind                  : Complete Main
    Default                       : Нет
    Forced                        : Нет
    
    Аудио #3
    Идентификатор                 : 4
    Формат                        : E-AC-3
    Формат/Информация             : Enhanced AC-3
    Коммерческое название         : Dolby Digital Plus
    Идентификатор кодека          : A_EAC3
    Продолжительность             : 1 ч. 33 м.
    Вид битрейта                  : Постоянный
    Битрейт                       : 640 Кбит/сек
    Каналы                        : 6 каналов
    Channel layout                : L R C LFE Ls Rs
    Частота                       : 48,0 КГц
    Частота кадров                : 31,250 кадров/сек (1536 SPF)
    Метод сжатия                  : С потерями
    Размер потока                 : 429 Мбайт (7%)
    Язык                          : English
    Service kind                  : Complete Main
    Default                       : Нет
    Forced                        : Нет
    
    Текст #1
    Идентификатор                 : 5
    Формат                        : UTF-8
    Идентификатор кодека          : S_TEXT/UTF8
    Идентификатор кодека          : UTF-8 Plain Text
    Продолжительность             : 1 ч. 24 м.
    Битрейт                       : 37 бит/сек
    Count of elements             : 501
    Размер потока                 : 23,5 Кбайт (0%)
    Язык                          : Russian
    Default                       : Нет
    Forced                        : Нет
    
    Текст #2
    Идентификатор                 : 6
    Формат                        : UTF-8
    Идентификатор кодека          : S_TEXT/UTF8
    Идентификатор кодека          : UTF-8 Plain Text
    Продолжительность             : 1 ч. 24 м.
    Битрейт                       : 32 бит/сек
    Count of elements             : 550
    Размер потока                 : 20,1 Кбайт (0%)
    Язык                          : English
    Default                       : Нет
    Forced                        : Нет
       

Дополнительные материалы

Вселенная Хищников.
Хищник. Комиксы. Одиночка.
Хищник в комиксах. Против всех.
Хищник. Книги. Одиночка.
Хищник в книгах. Против всех.
Хищник. Фильмы. Одиночка.

Дата последней правки: 2021-09-04 13:41:50

    Twitter   


Разделы

Главная
Новости
Ворох бумаг
Видео Linux
Игры в Linux
Безопасность
Статьи о FreeBSD
Статьи об Ubuntu
Статьи о Snappy
Статьи об Ubuntu Phone
Статьи о Kubuntu
Статьи о Xubuntu
Статьи о Lubuntu
Статьи об Open Source
Карта сайта

Лучшее на сайте:

1С под Linux.   Ускорение Ubuntu.   21 пример iptables.   Цикл статей о Ceph.   Убунту в дикой среде.   Ubuntu Linux на SSD.   Ubuntu для блондинок.   Поддержка железа в Linux.   BTSync на службе у админа.   Андроид программы в Ubuntu.   Прокидывание портов для p2p.   Анти СПАМ в Postfix.  



Группа поддержки